UL Chernobyl Diaries 2012 DVDRip XViD UNiQUE download from extabit.com, netload.in, rapidgator.net, rapidshare.com, ryushare.com, safelinking.net

Chernobyl Diaries 2012 DVDRip XViD UNiQUE

Information:

http://www.imdb.com/title/tt1991245/

Source Used
Chernobyl Diaries 2012 NTSC DVDR-THM

Format : AVI

Format/Info : Audio Video Interleave
File size : 1.41 GiB
Duration : 1h 28mn
Overall bit rate : 2 274 Kbps
Writing application : VirtualDubMod 1.5.10.2 (build 2540/release)
Writing library : VirtualDubMod build 2540/release

Video
ID : 0
Format : MPEG-4 Visual
Format profile : Advanced Simple@L5
Format settings, BVOP : 2
Format settings, QPel : No
Format settings, GMC : No warppoints
Format settings, Matrix : Default (H.263)
Muxing mode : Packed bitstream
Codec ID : XVID
Codec ID/Hint : XviD
Duration : 1h 28mn
Bit rate : 1 815 Kbps
Width : 720 pixels
Height : 384 pixels
Display aspect ratio : 1.85:1
Frame rate : 29.970 fps
Color space : YUV
Chroma subsampling : 4:2:0
Bit depth : 8 bits
Scan type : Progressive
Compression mode : Lossy
Bits/(Pixel*Frame) : 0.219
Stream size : 1.12 GiB (80%)
Writing library : XviD 64

Audio
ID : 1
Format : AC-3
Format/Info : Audio Coding 3
Mode extension : CM (complete main)
Format settings, Endianness : Big
Codec ID : 2000
Duration : 1h 28mn
Bit rate mode : Constant
Bit rate : 448 Kbps
Channel(s) : 6 channels
Channel positions : Front: L C R, Side: L R, LFE
Sampling rate : 48.0 KHz
Bit depth : 16 bits
Compression mode : Lossy
Stream size : 283 MiB (20%)
Alignment : Split accross interleaves
Interleave, duration : 33 ms (1.00 video frame)
Interleave, preload duration : 500 ms

Screens:

Rapidshare.com

Extabit.com

Uploaded.to

http://ul.to/6e4qdeay/Chernobyl.Diaries.2012.DVDRip.XViD-UNiQUE.part1.rar

http://ul.to/125c0rb2/Chernobyl.Diaries.2012.DVDRip.XViD-UNiQUE.part2.rar

Rapidgator.net

extabit.com:
http://extabit.com/file/27szf68vhoz6f/Chernobyl.Diaries.2012.DVDRip.XViD-UNiQUE.avi

rapidgator.net:
http://rapidgator.net/file/47923913/Chernobyl.Diaries.2012.DVDRip.XViD-UNiQUE.part1.rar.html

http://rapidgator.net/file/47923571/Chernobyl.Diaries.2012.DVDRip.XViD-UNiQUE.part2.rar.html

rapidshare.com:
http://rapidshare.com/files/1216329612/Chernobyl.Diaries.2012.DVDRip.XViD-UNiQUE.avi


Search for more UL Chernobyl Diaries 2012 DVDRip XViD UNiQUE download from extabit.com, netload.in, rapidgator.net, rapidshare.com, ryushare.com, safelinking.net free downloads at Leechers.info. You can also try to download UL Chernobyl Diaries 2012 DVDRip XViD UNiQUE download from extabit.com, netload.in, rapidgator.net, rapidshare.com, ryushare.com, safelinking.net torrent at NewTorrents.info.

Leave a comment

Name: (Required)

eMail: (Required)

Website:

Comment: