Scooby Doo.Monsters.Unleashed DVDRiP download from bitshare.com, extabit.com, freakshare.com, rapidshare.com, ryushare.com, safelinking.net, www.netload.in


Scooby-Doo.Monsters.Unleashed! DVDrip XViD-nCODE

Scooby-Doo 2. Monsters Unleashed!

Format : AVI

File size : 699 MiB
Duration : 1h 30mn
Overall bit rate : 1 075 Kbps
Writing application : VirtualDubMod 1.5.4.1 (build 2178/release)
Writing library : VirtualDubMod build 2178/release

Video
ID : 0
Format : MPEG-4 Visual
Format profile : Advanced Simple@L5
Format settings, BVOP : 1
Format settings, QPel : No
Format settings, GMC : No warppoints
Format settings, Matrix : Default (H.263)
Muxing mode : Packed bitstream
Codec ID : XVID
Duration : 1h 30mn
Bit rate : 948 Kbps
Width : 608 pixels
Height : 352 pixels
Display aspect ratio : 16:9
Frame rate : 25.000 fps
Color space : YUV
Chroma subsampling : 4:2:0
Bit depth : 8 bits
Scan type : Progressive
Compression mode : Lossy
Bits/(Pixel*Frame) : 0.177
Stream size : 616 MiB (88%)
Writing library : XviD 1.2.1 (UTC 2008-12-04)

Audio
ID : 1
Format : MPEG Audio
Mode : Joint stereo
Mode extension : MS Stereo
Codec ID : 55
Codec ID/Hint : MP3
Duration : 1h 29mn
Bit rate mode : Variable
Bit rate : 116 Kbps
Nominal bit rate : 128 Kbps
Channel(s) : 2 channels
Sampling rate : 48.0 KHz
Compression mode : Lossy
Stream size : 74.1 MiB (11%)
Alignment : Aligned on interleaves
Interleave, duration : 24 ms (0.61 video frame)
Interleave, preload duration : 158 ms
Writing library : LAME3.98r
Encoding settings : -m j -V 4 -q 2 -lowpass 17 abr 128
Language : English

https://ultramegabit.com/file/details/lzmwnbS2ZY8

http://fiberupload.com/8g0gqd7v9tt4/Scooby-Doo.Monsters.Unleashed!.avi

uploading

http://d01.

Link checked on Fri Dec 02, 2011 2:57 pm (GMT) Linkchecker Bot
bitshare.com:
http://bitshare.com/files/zz9tj2en/Scooby-Doo.Monsters.Unleashed-.avi.html

extabit.com:
http://extabit.com/file/28ej5j1nls2jf

freakshare.com:
http://freakshare.com/files/w307blsv/Scooby-Doo.Monsters.Unleashed-.avi.html

safelinking.net:
https://safelinking.net/d/f09ae67b4f

www.netload.in:
http://www.netload.in/dateiGwndPgSdJP/ScoobMonUnleashnC0DE.rar.htm


Search for more Scooby Doo.Monsters.Unleashed DVDRiP download from bitshare.com, extabit.com, freakshare.com, rapidshare.com, ryushare.com, safelinking.net, www.netload.in free downloads at Leechers.info. You can also try to download Scooby Doo.Monsters.Unleashed DVDRiP download from bitshare.com, extabit.com, freakshare.com, rapidshare.com, ryushare.com, safelinking.net, www.netload.in torrent at NewTorrents.info.

Leave a comment

Name: (Required)

eMail: (Required)

Website:

Comment: