Roman (DVDRip) 2006 TiCTaC 700MB=ink download from bitshare.com, hotfile.com, rapidgator.net, rapidshare.com, www.rapidshare.com

Posting date: October 04 2012
Info:

IMDB

http://www.imdb.com/title/tt0454932/

Plot
A lonely young man’s obsession with his neighbor gets the best of him, resulting in a murder, a cover-up and a potential new romance?
5.6 RATING IMDB
File Details
Cast
Cast overview, first billed only:
Lucky McKee Lucky McKee
Roman
Nectar Rose Nectar Rose
Eva / Dream Girl
Kristen Bell Kristen Bell
The Girl / Isis
Ben Boyer Ben Boyer
Russ
Mike McKee Mike McKee
Leroy Wolf
Jesse Hlubik Jesse Hlubik
Jesse
Chris Sivertson Chris Sivertson
Lanky Worker
Ernie Banks Ernie Banks
Cyrus
Adam Gierasch Adam Gierasch
Boyd
Eddie Steeples Eddie Steeples
Detective
Thomas Beaumont Thomas Beaumont
The Waiter
Vanessa Menendez Vanessa Menendez
Hedda Gabler
Lotus Harmony Lotus Harmony
Dream Girl
Pancho Alvarez Pancho Alvarez
Roman (Lucky McKee) is a lonely young man who yearns to find love, happiness and companionship. Tormented by his ungrateful co-workers and trapped in a life of tedium as a welder in a local factory, Roman’s one pleasure is his obsession with the elusive beauty (Kristen Bell) who lives in another apartment in his building complex. When a chance encounter with the young woman goes horribly wrong, a moment of frenzied desperation triggers a chilling turn of events leading to the girl’s murder. As he teeters between deranged fantasy and cold reality, Roman’s struggle to hide his grisly secret is further complicated by an eccentric neighbor named Eva (Nectar Rose) who develops an unlikely attraction to Roman and forces herself into his dark and tortured world.
Genres:
Drama Thriller
Country:
USA
Language:
English
Runtime:
92 min
Color:
Color
General
General
Complete name : Z:NEW MOVIE F IPTaviMatroskaRoman (DVDRip) 2006 TiCTaCRoman (DVDRip) 2006 TiCTaC.avi
Format : AVI
Format/Info : Audio Video Interleave
File size : 697 MiB
Duration : 1h 31mn
Overall bit rate mode : Variable
Overall bit rate : 1 061 Kbps
Writing application : VirtualDubMod 1.5.10.2 (build 2540/release)
Writing library : VirtualDubMod build 2540/release
Video
ID : 0
Format : MPEG-4 Visual
Format profile : Advanced Simple@L5
Format settings, BVOP : 2
Format settings, QPel : No
Format settings, GMC : No warppoints
Format settings, Matrix : Default (H.263)
Muxing mode : Packed bitstream
Codec ID : XVID
Codec ID/Hint : XviD
Duration : 1h 31mn
Bit rate : 946 Kbps
Width : 576 pixels
Height : 320 pixels
Display aspect ratio : 16:9
Frame rate : 23.976 fps
Color space : YUV
Chroma subsampling : 4:2:0
Bit depth : 8 bits
Scan type : Progressive
Compression mode : Lossy
Bits/(Pixel*Frame) : 0.214
Stream size : 622 MiB (89%)
Writing library : XviD 1.1.0 (UTC 2005-11-22)
Audio
ID : 1
Format : MPEG Audio
Format version : Version 1
Format profile : Layer 3
Mode : Joint stereo
Mode extension : MS Stereo
Codec ID : 55
Codec ID/Hint : MP3
Duration : 1h 31mn
Bit rate mode : Variable
Bit rate : 102 Kbps
Nominal bit rate : 128 Kbps
Channel(s) : 2 channels
Sampling rate : 48.0 KHz
Compression mode : Lossy
Stream size : 67.0 MiB (10%)
Alignment : Aligned on interleaves
Interleave, duration : 24 ms (0.58 video frame)
Interleave, preload duration : 344 ms
Writing library : LAME3.90.
Encoding settings : -m j -V 4 -q 2 -lowpass 17.6 abr 128
Screenshot:
Download Link:

rapidgator.net:
http://rapidgator.net/file/48200089/


Search for more Roman (DVDRip) 2006 TiCTaC 700MB=ink download from bitshare.com, hotfile.com, rapidgator.net, rapidshare.com, www.rapidshare.com free downloads at Leechers.info. You can also try to download Roman (DVDRip) 2006 TiCTaC 700MB=ink download from bitshare.com, hotfile.com, rapidgator.net, rapidshare.com, www.rapidshare.com torrent at NewTorrents.info.

Leave a comment

Name: (Required)

eMail: (Required)

Website:

Comment: