Apartment 143 2011 LiMiTED BRRip Xvid-eXceSs download from bitshare.com, extabit.com, rapidshare.com, safelinking.net, www.netload.in, www.rapidshare.com

http://www.imdb.com/title/tt1757742/

### General Info ###

Release Title : Apartment.143.2011.LiMiTED.BRRip.Xvid-eXceSs
Encoder : LoLz0r
Source : 1080p.BluRay.x264-GECKOS
Movie Size : 1.37 GiB

IMDB : http://www.imdb.com/title/tt1757742/
Language : English
Subtitle : N/A
Genre : Horror
Runtime : 1:20:01
Sample : Yes

### Story Line ###

Plot : A team of parapsychologists try to figure out a strange phenomena occurring in an apartment building.

### Technical Details ###

General

Format : AVI

Format/Info : Audio Video Interleave
File size : 1.37 GiB
Duration : 1h 20mn
Overall bit rate : 2 452 Kbps

Video
ID : 0
Format : MPEG-4 Visual
Format profile : Advanced Simple@L5
Format settings, BVOP : 2
Format settings, QPel : No
Format settings, GMC : No warppoints
Format settings, Matrix : Default (H.263)
Muxing mode : Packed bitstream
Codec ID : XVID
Codec ID/Hint : XviD
Duration : 1h 20mn
Bit rate : 2 283 Kbps
Width : 624 pixels
Height : 336 pixels
Display aspect ratio : 1.85:1
Frame rate : 23.976 fps
Color space : YUV
Chroma subsampling : 4:2:0
Bit depth : 8 bits
Scan type : Progressive
Compression mode : Lossy
Bits/(Pixel*Frame) : 0.454
Stream size : 1.28 GiB (93%)
Writing library : XviD 1.2.1 (UTC 2008-12-04)

Audio
ID : 1
Format : AC-3
Format/Info : Audio Coding 3
Mode extension : CM (complete main)
Format settings, Endianness : Big
Codec ID : 2000
Duration : 1h 20mn
Bit rate mode : Constant
Bit rate : 160 Kbps
Channel(s) : 6 channels
Channel positions : Front: L C R, Side: L R, LFE
Sampling rate : 48.0 KHz
Bit depth : 16 bits
Compression mode : Lossy
Stream size : 91.6 MiB (7%)
Alignment : Split accross interleaves
Interleave, duration : 42 ms (1.00 video frame)
Interleave, preload duration : 500 ms

www.netload.in:
http://www.netload.in/dateiqtC61HiimQ/excess-apartment-143.avi.htm


Search for more Apartment 143 2011 LiMiTED BRRip Xvid-eXceSs download from bitshare.com, extabit.com, rapidshare.com, safelinking.net, www.netload.in, www.rapidshare.com free downloads at Leechers.info. You can also try to download Apartment 143 2011 LiMiTED BRRip Xvid-eXceSs download from bitshare.com, extabit.com, rapidshare.com, safelinking.net, www.netload.in, www.rapidshare.com torrent at NewTorrents.info.

Leave a comment

Name: (Required)

eMail: (Required)

Website:

Comment:



 

RecentComments

ElseWheres